Inglourious Basterds (2009) (1080p x265 HEVC 10bit AAC 5 1) [Prof] torrent download

seeders: 310
leechers: 366
updated:
Added ago by Prof ***** in Movies
Torrent Downloaded 10 times.
Info Hash: 88C29B4A395066E701D027310D280A269720CCC4


Torrent Files

Inglourious Basterds (2009) (1080p x265 HEVC 10bit AAC 5 1) [Prof] (Size: 4.1 GB)
  Inglourious Basterds (2009) (1080p x265 HEVC 10bit AAC 5 1) [Prof] 4.1 GB

Torrent Description



Format : Matroska
Format version : Version 4 / Version 2
File size : 4.11 GiB
Duration : 2 h 32 min
Overall bit rate : 3 847 kb/s
Movie name : Inglourious Basterds
Encoded date : UTC 2018-05-23 02:14:13
Writing application : mkvmerge v9.6.0 ('Slave To Your Mind') 64bit
Writing library : libebml v1.3.4 + libmatroska v1.4.5

Video
ID : 1
Format : HEVC
Format/Info : High Efficiency Video Coding
Format profile : Main [email protected]@Main
Codec ID : V_MPEGH/ISO/HEVC
Duration : 2 h 32 min
Bit rate : 3 206 kb/s
Width : 1 920 pixels
Height : 1 080 pixels
Display aspect ratio : 16:9
Frame rate mode : Constant
Frame rate : 23.976 (24000/1001) FPS
Color space : YUV
Chroma subsampling : 4:2:0
Bit depth : 10 bits
Bits/(Pixel*Frame) : 0.064
Stream size : 3.43 GiB (83%)
Writing library : x265 2.1+69-c97c64ab8b8e:[Windows][GCC 6.2.0][64 bit] 10bit
Encoding settings : cpuid=1173503 / frame-threads=2 / numa-pools=4 / wpp / no-pmode / no-pme / no-psnr / no-ssim / log-level=2 / input-csp=1 / input-res=1920x1080 / interlace=0 / total-frames=220091 / level-idc=0 / high-tier=1 / uhd-bd=0 / ref=4 / no-allow-non-conformance / no-repeat-headers / annexb / no-aud / no-hrd / info / hash=0 / no-temporal-layers / open-gop / min-keyint=23 / keyint=250 / bframes=4 / b-adapt=2 / b-pyramid / bframe-bias=0 / rc-lookahead=25 / lookahead-slices=4 / scenecut=40 / no-intra-refresh / ctu=64 / min-cu-size=8 / rect / no-amp / max-tu-size=32 / tu-inter-depth=1 / tu-intra-depth=1 / limit-tu=0 / rdoq-level=2 / signhide / no-tskip / nr-intra=0 / nr-inter=0 / no-constrained-intra / strong-intra-smoothing / max-merge=3 / limit-refs=3 / limit-modes / me=3 / subme=3 / merange=57 / temporal-mvp / weightp / no-weightb / no-analyze-src-pics / deblock=0:0 / sao / no-sao-non-deblock / rd=4 / no-early-skip / rskip / no-fast-intra / no-tskip-fast / no-cu-lossless / no-b-intra / rdpenalty=0 / psy-rd=2.00 / psy-rdoq=1.00 / no-rd-refine / analysis-mode=0 / no-lossless / cbqpoffs=0 / crqpoffs=0 / rc=crf / crf=18.0 / qcomp=0.60 / qpstep=4 / stats-write=0 / stats-read=0 / ipratio=1.40 / pbratio=1.30 / aq-mode=1 / aq-strength=1.00 / cutree / zone-count=0 / no-strict-cbr / qg-size=32 / no-rc-grain / qpmax=69 / qpmin=0 / sar=0 / overscan=0 / videoformat=5 / range=0 / colorprim=2 / transfer=2 / colormatrix=2 / chromaloc=0 / display-window=0 / max-cll=0,0 / min-luma=0 / max-luma=1023 / log2-max-poc-lsb=8 / vui-timing-info / vui-hrd-info / slices=1 / opt-qp-pps / opt-ref-list-length-pps / no-multi-pass-opt-rps / scenecut-bias=0.05
Default : Yes
Forced : No

Audio
ID : 2
Format : AAC
Format/Info : Advanced Audio Codec
Format profile : LC
Codec ID : A_AAC
Duration : 2 h 32 min
Bit rate : 632 kb/s
Channel(s) : 6 channels
Channel positions : Front: L C R, Side: L R, LFE
Sampling rate : 48.0 kHz
Frame rate : 46.875 FPS (1024 spf)
Compression mode : Lossy
Delay relative to video : 9 ms
Stream size : 692 MiB (16%)
Language : English
Default : No
Forced : No

Text
ID : 3
Format : PGS
Muxing mode : zlib
Codec ID : S_HDMV/PGS
Codec ID/Info : Picture based subtitle format used on BDs/HD-DVDs
Duration : 2 h 27 min
Bit rate : 7 647 b/s
Count of elements : 2516
Stream size : 8.04 MiB (0%)
Language : English
Default : No
Forced : No

Menu
00:00:00.000 : en:Chapter 01
00:01:51.194 : en:Chapter 02
00:01:52.153 : en:Chapter 03
00:07:06.384 : en:Chapter 04
00:21:20.153 : en:Chapter 05
00:21:21.154 : en:Chapter 06
00:24:12.826 : en:Chapter 07
00:28:15.902 : en:Chapter 08
00:30:18.942 : en:Chapter 09
00:37:56.565 : en:Chapter 10
00:37:57.525 : en:Chapter 11
00:41:47.922 : en:Chapter 12
00:48:28.405 : en:Chapter 13
00:53:53.563 : en:Chapter 14
01:00:50.438 : en:Chapter 15
01:04:05.007 : en:Chapter 16
01:04:06.050 : en:Chapter 17
01:09:24.702 : en:Chapter 18
01:12:17.166 : en:Chapter 19
01:19:25.927 : en:Chapter 20
01:32:54.777 : en:Chapter 21
01:37:02.233 : en:Chapter 22
01:43:51.475 : en:Chapter 23
01:45:38.540 : en:Chapter 24
01:45:39.541 : en:Chapter 25
01:50:30.081 : en:Chapter 26
01:50:31.082 : en:Chapter 27
01:57:35.089 : en:Chapter 28
02:03:38.452 : en:Chapter 29
02:10:30.072 : en:Chapter 30
02:16:40.859 : en:Chapter 31
02:23:10.748 : en:Chapter 32
02:25:47.280 : en:Chapter 33
02:29:30.962 : en:Chapter 34



Related Torrents

torrent name size age seed leech
48.89 MB 26 seconds 137 38
689.71 MB 26 seconds 402 116
4.58 GB 26 seconds 207 130
209.27 MB 26 seconds 228 231
391.9 KB 2 minutes 575 302

Sharing Widget


Download torrent
4.1 GB
seeders:1214
leechers:386
Inglourious Basterds (2009) (1080p x265 HEVC 10bit AAC 5 1) [Prof]



To share this torrent use the code below and insert it into comments, status messages, forum posts or your signature.

Torrent: Inglourious Basterds (2009) (1080p x265 HEVC 10bit AAC 5 1) [Prof]

Comments

Latest Searches